Main Menu

 Home 

 Software 
    - Driver 
    - Graphic & Design 
    - Internet 
    - MacOSX 
    - Multimedia 
    - Office 
    - Portable 
    - Security 
    - System 

 Music 
    - Mp3 
    - Music Video 

 Games 
    - PC 
    - Console 

 Books 
    - Audiobook 
    - Comic 
    - eBook 
    - Magazine 
    - Video Training 

 Movies 
    - Amine 
    - Cam 
    - DVD 
    - HD/BluRay 
    - TV Show 
    - Documentary 

 Graphics 
    - 3D Model 
    - icon 
    - Font 
    - Footage 
    - Photoshop 
    - Template 
    - Vector 
    - Stock 
    - Script/Plugin 
    - Wallpaper 

 Mobile 
    - iOS 
    - Android 
 
 
 
   Books / Video Training : Coursera - Computer Architecture (Princeton University)
Coursera - Computer  Architecture (Princeton University)

Coursera - Computer Architecture (Princeton University)
WEBRip | English | MP4 + PDF Guides | 960 x 540 | AVC ~167 kbps | 29.970 fps
AAC | 128 Kbps | 44.1 KHz | 2 channels | Subs: English (.srt) | ~21 hours | 3.29 GB
Genre: eLearning Video / Computer Engineering, Technology
Learn to design the computer architecture of complex modern microprocessors.


This course can help learners form a strong foundation in the understanding and design of modern computing systems. Building on a computer organization base, this course explores techniques that go into designing a modern microprocessor. Fundamental understanding of computer architecture is key not only for students interested in hardware and processor design, but is a foundation for students interested in compilers, operating systems, and high performance programming. This course will explore how the computer architect can utilize the increasing number of transistors available to improve the performance of a processor.

Focus will be given to architectures that can exploit different forms of parallelism, whether they be implicit or explicit. This course covers architectural techniques such as multi-issue superscalar processors, out-of-order processors, Very Long Instruction Word (VLIW) processors, advanced caching, and multiprocessor systems.

Exploration of the basic hardware/software components, assembly language, and functional architecture design of computers, specifically focusing on instruction sets, processor arithmetic and control, the Von Neumann architecture, pipelining, memory management, storage, and other input/output topics.

General
Complete name : 03_L12S3-_Non-blocking_Caches_19-29.mp4
Format : MPEG-4
Format profile : Base Media
Codec ID : isom (isom/iso2/avc1/mp41)
File size : 42.1 MiB
Duration : 19 min 29 s
Overall bit rate mode : Variable
Overall bit rate : 302 kb/s
Encoded date : UTC 1970-01-01 00:00:00
Tagged date : UTC 1970-01-01 00:00:00
Writing application : Lavf53.29.100

Video
ID : 1
Format : AVC
Format/Info : Advanced Video Codec
Format profile : [email protected]
Format settings : CABAC / 4 Ref Frames
Format settings, CABAC : Yes
Format settings, RefFrames : 4 frames
Codec ID : avc1
Codec ID/Info : Advanced Video Coding
Duration : 19 min 29 s
Bit rate : 167 kb/s
Width : 960 pixels
Height : 540 pixels
Display aspect ratio : 16:9
Frame rate mode : Constant
Frame rate : 29.970 (30000/1001) FPS
Color space : YUV
Chroma subsampling : 4:2:0
Bit depth : 8 bits
Scan type : Progressive
Bits/(Pixel*Frame) : 0.011
Stream size : 23.3 MiB (55%)
Writing library : x264 core 120 r2120 0c7dab9
Encoding settings : cabac=1 / ref=3 / deblock=1:0:0 / analyse=0x3:0x113 / me=hex / subme=7 / psy=1 / psy_rd=1.00:0.00 / mixed_ref=1 / me_range=16 / chroma_me=1 / trellis=1 / 8x8dct=1 / cqm=0 / deadzone=21,11 / fast_pskip=1 / chroma_qp_offset=-2 / threads=12 / sliced_threads=0 / nr=0 / decimate=1 / interlaced=0 / bluray_compat=0 / constrained_intra=0 / bframes=3 / b_pyramid=2 / b_adapt=1 / b_bias=0 / direct=1 / weightb=1 / open_gop=0 / weightp=2 / keyint=250 / keyint_min=25 / scenecut=40 / intra_refresh=0 / rc_lookahead=40 / rc=crf / mbtree=1 / crf=28.0 / qcomp=0.60 / qpmin=0 / qpmax=69 / qpstep=4 / ip_ratio=1.40 / aq=1:1.00
Encoded date : UTC 1970-01-01 00:00:00
Tagged date : UTC 1970-01-01 00:00:00

Audio
ID : 2
Format : AAC
Format/Info : Advanced Audio Codec
Format profile : LC
Codec ID : mp4a-40-2
Duration : 19 min 29 s
Bit rate mode : Variable
Bit rate : 128 kb/s
Channel(s) : 2 channels
Channel positions : Front: L R
Sampling rate : 44.1 kHz
Frame rate : 43.066 FPS (1024 SPF)
Compression mode : Lossy
Stream size : 17.7 MiB (42%)
Default : Yes
Alternate group : 1
Encoded date : UTC 1970-01-01 00:00:00
Tagged date : UTC 1970-01-01 00:00:00

Screenshots


Coursera - Computer  Architecture (Princeton University)

Coursera - Computer  Architecture (Princeton University)

Coursera - Computer  Architecture (Princeton University)


Download link:

rapidgator_net:
https://rapidgator.net/file/92fc2a1e074d3ddae218a508cc707ddd/xmk9r.Coursera..Computer.Architecture.Princeton.University.part1.rar.html
https://rapidgator.net/file/a9f6674cf1d369cb1d931ac7590954f1/xmk9r.Coursera..Computer.Architecture.Princeton.University.part2.rar.html
https://rapidgator.net/file/9c5498b3d212ab421ffdb37128a8b865/xmk9r.Coursera..Computer.Architecture.Princeton.University.part3.rar.html
https://rapidgator.net/file/bb1507e457c919704249c6ebe6a3839e/xmk9r.Coursera..Computer.Architecture.Princeton.University.part4.rar.html
https://rapidgator.net/file/5810259f258229d9d6b5b252bc892807/xmk9r.Coursera..Computer.Architecture.Princeton.University.part5.rar.html
https://rapidgator.net/file/f037ffa1937531007e25ce2104531114/xmk9r.Coursera..Computer.Architecture.Princeton.University.part6.rar.html
https://rapidgator.net/file/de6b03c95433f772498ccdc58cef9d7c/xmk9r.Coursera..Computer.Architecture.Princeton.University.part7.rar.html

nitroflare_com:
http://nitroflare.com/view/6BD77E176F0F214/xmk9r.Coursera..Computer.Architecture.Princeton.University.part1.rar
http://nitroflare.com/view/803DE701504B731/xmk9r.Coursera..Computer.Architecture.Princeton.University.part2.rar
http://nitroflare.com/view/CEA0AE8803D7EA7/xmk9r.Coursera..Computer.Architecture.Princeton.University.part3.rar
http://nitroflare.com/view/D8AA997B1FDF881/xmk9r.Coursera..Computer.Architecture.Princeton.University.part4.rar
http://nitroflare.com/view/3BA3BD42A3FAD9C/xmk9r.Coursera..Computer.Architecture.Princeton.University.part5.rar
http://nitroflare.com/view/7C2B6FAEEE7B144/xmk9r.Coursera..Computer.Architecture.Princeton.University.part6.rar
http://nitroflare.com/view/8CFE89A01A97487/xmk9r.Coursera..Computer.Architecture.Princeton.University.part7.rar

uploadgig_com:
https://uploadgig.com/file/download/0d753e8cea2e64Dd/xmk9r.Coursera..Computer.Architecture.Princeton.University.part1.rar
https://uploadgig.com/file/download/B0529441c4fb2988/xmk9r.Coursera..Computer.Architecture.Princeton.University.part2.rar
https://uploadgig.com/file/download/b9F947108a5e7Cde/xmk9r.Coursera..Computer.Architecture.Princeton.University.part3.rar
https://uploadgig.com/file/download/D8deb7153c7b6196/xmk9r.Coursera..Computer.Architecture.Princeton.University.part4.rar
https://uploadgig.com/file/download/af2fF2344821e64a/xmk9r.Coursera..Computer.Architecture.Princeton.University.part5.rar
https://uploadgig.com/file/download/99413Eba3c1C9093/xmk9r.Coursera..Computer.Architecture.Princeton.University.part6.rar
https://uploadgig.com/file/download/15f4D9Eb965022Df/xmk9r.Coursera..Computer.Architecture.Princeton.University.part7.rar


Links are Interchangeable - No Password - Single Extraction
 

 

Back to Top